Benvenuto su VideoMakers.net
Iscriviti per condividere la tua passione sul principale sito web italiano dedicato al VideoMaking!

Gli eventuali inserti pubblicitari all'interno delle discussioni sono visibili solo se non hai eseguito l'accesso al forum; ricordati di eseguire l'accesso o, se non sei ancora registrato, fallo QUI

Clicca qui per leggere le regole del forum
Discussioni su come: unire, tagliare, aggiungere effetti, sottotitoli, etc.

Moderatore: Moderatori

da Doomkile
#1322938
Ciao raga non immaginavo di trovarmi di fronte a questo dilemma, eppure è accaduto.
Ho dei file ormai vecchi 720x576 kbps a circa 8000kbps audio classico 192 eccecc
altri file a 1080p quindi 1920x1280 e alcuni 1440x1000 qualcosa, bitrate sui 12000 kbps, eccecc

il problema sorge sulla q di GB che impiegano. I primi viaggiano sui 1,75 gb i secondi sui 1,4gb alcuni sui 2,5gb

tutti i file hanno circa 45m

io non capisco quale sia la qualità migliore, cioè il file da 1,75gb ha meno gb ovviamente e kbps sono inferiori rispetto al 1080p, ma alcuni file da 1080p hanno gb inferiori rispetto a quelli da 1,75gb. Eppure hanno bitrate più alti rispetto a quelli da 720x576, presumo 576p.

1080p 1,4gb bitrate più alto
576p 1,75gb bitrate inferiore

quale scelgo? pensavo di tenerli entrambi grazie
da willyfan
#1322939
Scusa ma stai scrivendo cose certamente non corrette.
Indipendentemente dal codec e dalla risoluzione, un bitrate di 8 mbps (8000 kbps) deve restituire un file più piccolo di un 12mbps, a parità di durata.
Se questo non succede, verifica che la durata sia la stessa, il bitrate che tu affermi essere sia giusto, e verifica il bitrate dell'audio eventualmente.

Detto questo, se dovessi scegliere tra un file sd 720 x 576 a 8 mbps in mpeg2 e un file 1920 x 1080 a 8 mbps in h264 sceglierei il secondo. Se il codec fosse h265 sceglierei il secondo anche se fosse un bitrate inferiore.

nine dots film

da Doomkile
#1322965
ciao willy grazie. guarda, i 1080p hanno dimensione inferiore perché dipende dal modo di ottenerli. Non sono di qualità massima circa 4gb a file, bensì da circa 3gb o meno, in tal caso ho un 1,3gb a fronte di un file con inquadratura inferiore ma con dimensione maggiore circa 1,8gb.

a questo punto non so che scegliere, o tengo entrambi ma occupano spazio o tengo solo i 1080p con dimensione inferiore. Cioè, non so proprio quale posso preferire. sicuro i 1080p hanno più qualità di inquadratura e lingue audio ma i file da 1,8gb hanno meno audio e inquadratura inferiore
da Rider
#1322966
Premetto che condivido quanto scritto da Willy.
Sarebbe opportuno che tu fornissi il risultato dell'analisi dei video fatta con il freeware Mediainfo, visto che la tua descrizione dei video è controversa (è un fatto matematico).
Ad ogni modo, se quei video non devono mai più essere modificatima visti e sentiti così come sono, ti devi basare solo sulla qualità audio e video apparente. A parità, scegli ovviamente quello meno ingombrante.
Il bitrate non è un parametro affidabile di qualità, se non sai come ci si è arrivati :wacko:
da willyfan
#1322969

Doomkile ha scritto:ciao willy grazie. guarda, i 1080p hanno dimensione inferiore perché dipende dal modo di ottenerli.
col cavolo. La dimensione del file è correlata solo ed esclusivamente al bitrate, ovviamente audio + video. Non è possibile avere un file a pari bitrate di dimensione più bassa di un altro, così come non è possibile mettere un litro di vino in una bottiglia da mezzo litro.
Quindi, ci servono elementi più precisi per dare risposte.
E perdonate i francesismi, ma quando si sparano così grosse non riesco a trattenermi.



Inviato dal mio M2007J20CG utilizzando Tapatalk

da Rider
#1322974
willyfan ha scritto: dom, 09 mag 2021 - 15:03 col cavolo.
E perdonate i francesismi, ma quando si sparano così grosse non riesco a trattenermi.
sei stato a scuola dalle suore!? :P

la tua espressione peggiore però è quando dici:" non c'entra una cippa!" :disgu:
da Doomkile
#1322977
penso la stessa cosa di voi, proprio questo mi fa strano, posto il report dell ep da dvd che ho acquistato anni fa come esempio perchè lo stesso problema si ripresenta in altre serie
il report del 1080p dovete attendere credo domani lo posterò

General
Complete name : SIGNORA_IN_GIALLO_1_1.Title1.vob
Format : MPEG-PS
File size : 1.74 GiB
Duration : 45 min 48 s
Overall bit rate mode : Variable
Overall bit rate : 5 452 kb/s

Video
ID : 224 (0xE0)
Format : MPEG Video
Format version : Version 2
Format profile : Main@Main
Format settings : CustomMatrix / BVOP
Format settings, BVOP : Yes
Format settings, Matrix : Custom
Format settings, GOP : Variable
Format settings, picture structure : Frame
Duration : 45 min 48 s
Bit rate mode : Variable
Bit rate : 4 960 kb/s
Maximum bit rate : 7 000 kb/s
Width : 720 pixels
Height : 576 pixels
Display aspect ratio : 4:3
Frame rate : 25.000 FPS
Standard : PAL
Color space : YUV
Chroma subsampling : 4:2:0
Bit depth : 8 bits
Scan type : Interlaced
Scan order : Top Field First
Compression mode : Lossy
Bits/(Pixel*Frame) : 0.478
Time code of first frame : 09:59:59:00
Time code source : Group of pictures header
GOP, Open/Closed : Closed
Stream size : 1.59 GiB (91%)

Audio #1
ID : 189 (0xBD)-128 (0x80)
Format : AC-3
Format/Info : Audio Coding 3
Commercial name : Dolby Digital
Muxing mode : DVD-Video
Duration : 45 min 47 s
Bit rate mode : Constant
Bit rate : 192 kb/s
Channel(s) : 2 channels
Channel layout : L R
Sampling rate : 48.0 kHz
Frame rate : 31.250 FPS (1536 SPF)
Compression mode : Lossy
Stream size : 62.9 MiB (4%)
Service kind : Complete Main

Audio #2
ID : 189 (0xBD)-129 (0x81)
Format : AC-3
Format/Info : Audio Coding 3
Commercial name : Dolby Digital
Muxing mode : DVD-Video
Duration : 45 min 47 s
Bit rate mode : Constant
Bit rate : 192 kb/s
Channel(s) : 2 channels
Channel layout : L R
Sampling rate : 48.0 kHz
Frame rate : 31.250 FPS (1536 SPF)
Compression mode : Lossy
Stream size : 62.9 MiB (4%)
Service kind : Complete Main
da Doomkile
#1322978
ok, qui il report del 1080p dello stesso ep cm si nota è di qualità superiore, ma ho altri ep in 1080 da 1,6gb, esempio vi posto sotto un ep di supercar in 1080p e uno di south park in 1080pcon la stessa dimensione del vob de la signora giallo e addirittura inferiore per southpark calcolando che dura 22m raddoppiando il calcolo del doppio dovrebbe arrivare sui 1,7 del vob

General
Complete name : [S01.E03] La signora in giallo - Delitto a Cabot Cove.mp4
Format : MPEG-4
Format profile : Base Media
Codec ID : isom (isom/iso2/avc1/mp41)
File size : 3.06 GiB
Duration : 48 min 18 s
Overall bit rate : 9 065 kb/s
Movie name : Delitto a Cabot Cove
Album : La signora in giallo
Track name/Position : 3
Track name/Total : 1
Writing application : Lavf58.33.100
Comment : Quattro figlie (Marilyn Hassett, Cassie Yates, Anne Lockhart, Doran Clark) dichiarano che il loro miliardario padre è finito in mare mentre erano sul loro yacht in mezzo a un uragano.

Video
ID : 1
Format : AVC
Format/Info : Advanced Video Codec
Format profile : Baseline@L4
Format settings : 1 Ref Frames
Format settings, CABAC : No
Format settings, Reference frames : 1 frame
Codec ID : avc1
Codec ID/Info : Advanced Video Coding
Duration : 48 min 18 s
Bit rate : 8 478 kb/s
Width : 1 440 pixels
Height : 1 080 pixels
Display aspect ratio : 4:3
Frame rate mode : Variable
Frame rate : 23.976 (24000/1001) FPS
Minimum frame rate : 23.974 FPS
Maximum frame rate : 23.981 FPS
Color space : YUV
Chroma subsampling : 4:2:0
Bit depth : 8 bits
Scan type : Progressive
Bits/(Pixel*Frame) : 0.227
Stream size : 2.86 GiB (94%)
Codec configuration box : avcC

Audio #1
ID : 2
Format : AAC LC
Format/Info : Advanced Audio Codec Low Complexity
Codec ID : mp4a-40-2
Duration : 48 min 18 s
Bit rate mode : Constant
Bit rate : 192 kb/s
Channel(s) : 2 channels
Channel layout : L R
Sampling rate : 48.0 kHz
Frame rate : 46.875 FPS (1024 SPF)
Compression mode : Lossy
Stream size : 66.3 MiB (2%)
Language : English
Default : Yes
Alternate group : 1

Audio #2
ID : 3
Format : AAC LC
Format/Info : Advanced Audio Codec Low Complexity
Codec ID : mp4a-40-2
Duration : 48 min 18 s
Bit rate mode : Constant
Bit rate : 125 kb/s
Channel(s) : 2 channels
Channel layout : L R
Sampling rate : 48.0 kHz
Frame rate : 46.875 FPS (1024 SPF)
Compression mode : Lossy
Stream size : 43.3 MiB (1%)
Language : French
Default : Yes
Alternate group : 2

Audio #3
ID : 4
Format : AAC LC
Format/Info : Advanced Audio Codec Low Complexity
Codec ID : mp4a-40-2
Duration : 48 min 18 s
Bit rate mode : Constant
Bit rate : 128 kb/s
Channel(s) : 2 channels
Channel layout : L R
Sampling rate : 48.0 kHz
Frame rate : 46.875 FPS (1024 SPF)
Compression mode : Lossy
Stream size : 44.2 MiB (1%)
Language : Italian
Default : Yes
Alternate group : 3

Audio #4
ID : 5
Format : AAC LC
Format/Info : Advanced Audio Codec Low Complexity
Codec ID : mp4a-40-2
Duration : 48 min 18 s
Bit rate mode : Constant
Bit rate : 128 kb/s
Channel(s) : 2 channels
Channel layout : L R
Sampling rate : 48.0 kHz
Frame rate : 46.875 FPS (1024 SPF)
Compression mode : Lossy
Stream size : 44.2 MiB (1%)
Language : Spanish
Default : Yes
Alternate group : 4



General
Complete name : [S02.E19] Supercar - Il ritorno di Goliat - Parte 2.mp4
Format : MPEG-4
Format profile : Base Media
Codec ID : isom (isom/iso2/avc1/mp41)
File size : 1.83 GiB
Duration : 42 min 40 s
Overall bit rate : 6 144 kb/s
Movie name : Il ritorno di Goliat - Parte 2
Album : Supercar
Track name/Position : 19
Track name/Total : 2
Writing application : Lavf58.33.100
Comment : L'acerrimo nemico di Michael, Garth Knight (interpretato sempre da Hasselhoff), rapisce Devon, April, e uno scienziato per costringere K.I.T.T. a una resa dei conti con il suo nuovo Goliat.

Video
ID : 1
Format : AVC
Format/Info : Advanced Video Codec
Format profile : Baseline@L4
Format settings : 1 Ref Frames
Format settings, CABAC : No
Format settings, Reference frames : 1 frame
Codec ID : avc1
Codec ID/Info : Advanced Video Coding
Duration : 42 min 40 s
Bit rate : 5 816 kb/s
Width : 1 440 pixels
Height : 1 080 pixels
Display aspect ratio : 4:3
Frame rate mode : Variable
Frame rate : 23.976 (24000/1001) FPS
Minimum frame rate : 23.974 FPS
Maximum frame rate : 23.981 FPS
Color space : YUV
Chroma subsampling : 4:2:0
Bit depth : 8 bits
Scan type : Progressive
Bits/(Pixel*Frame) : 0.156
Stream size : 1.73 GiB (95%)
Codec configuration box : avcC

Audio #1
ID : 2
Format : AAC LC
Format/Info : Advanced Audio Codec Low Complexity
Codec ID : mp4a-40-2
Duration : 42 min 40 s
Bit rate mode : Constant
Bit rate : 192 kb/s
Channel(s) : 2 channels
Channel layout : L R
Sampling rate : 48.0 kHz
Frame rate : 46.875 FPS (1024 SPF)
Compression mode : Lossy
Stream size : 58.6 MiB (3%)
Language : English
Default : Yes
Alternate group : 1

Audio #2
ID : 3
Format : AAC LC
Format/Info : Advanced Audio Codec Low Complexity
Codec ID : mp4a-40-2
Duration : 42 min 40 s
Bit rate mode : Constant
Bit rate : 128 kb/s
Channel(s) : 2 channels
Channel layout : L R
Sampling rate : 48.0 kHz
Frame rate : 46.875 FPS (1024 SPF)
Compression mode : Lossy
Stream size : 39.1 MiB (2%)
Language : Italian
Default : Yes
Alternate group : 2




General
Complete name : [S01.E01] South Park - Una Sonda Anale Per Cartman.mp4
Format : MPEG-4
Format profile : Base Media
Codec ID : isom (isom/iso2/avc1/mp41)
File size : 789 MiB
Duration : 22 min 1 s
Overall bit rate : 5 009 kb/s
Movie name : Una Sonda Anale Per Cartman
Album : South Park
Track name/Position : 1
Track name/Total : 1
Writing application : Lavf58.33.100
Comment : Cartman sogna di avere un incontro ravvicinato con un alieno. Gli altri bambini sono convinti che il sogno sia reale e che a Cartman sia stata impiantata una sonda anale aliena.

Video
ID : 1
Format : AVC
Format/Info : Advanced Video Codec
Format profile : Baseline@L4
Format settings : 1 Ref Frames
Format settings, CABAC : No
Format settings, Reference frames : 1 frame
Codec ID : avc1
Codec ID/Info : Advanced Video Coding
Duration : 22 min 1 s
Bit rate : 4 681 kb/s
Width : 1 440 pixels
Height : 1 080 pixels
Display aspect ratio : 4:3
Frame rate mode : Variable
Frame rate : 23.976 (24000/1001) FPS
Minimum frame rate : 23.974 FPS
Maximum frame rate : 23.981 FPS
Color space : YUV
Chroma subsampling : 4:2:0
Bit depth : 8 bits
Scan type : Progressive
Bits/(Pixel*Frame) : 0.126
Stream size : 737 MiB (93%)
Codec configuration box : avcC

Audio #1
ID : 2
Format : AAC LC
Format/Info : Advanced Audio Codec Low Complexity
Codec ID : mp4a-40-2
Duration : 22 min 1 s
Bit rate mode : Constant
Bit rate : 192 kb/s
Channel(s) : 2 channels
Channel layout : L R
Sampling rate : 48.0 kHz
Frame rate : 46.875 FPS (1024 SPF)
Compression mode : Lossy
Stream size : 30.2 MiB (4%)
Language : English
Default : Yes
Alternate group : 1

Audio #2
ID : 3
Format : AAC LC
Format/Info : Advanced Audio Codec Low Complexity
Codec ID : mp4a-40-2
Duration : 22 min 1 s
Bit rate mode : Constant
Bit rate : 128 kb/s
Channel(s) : 2 channels
Channel layout : L R
Sampling rate : 48.0 kHz
Frame rate : 46.875 FPS (1024 SPF)
Compression mode : Lossy
Stream size : 20.2 MiB (3%)
Language : Italian
Default : Yes
Alternate group : 2
da willyfan
#1322983
South Park ha un Overall bit rate : 5 009 kb/s e per 22 minuti di video occupa 789 mb
Supercar ha un Overall bit rate : 6 144 kb/s e per 42 min 40 s occupa 1.83 GiB
La signora in giallo - Delitto a Cabot Cove ha un Overall bit rate : 9 065 kb/s e per48 min 18 s occupa 3.06 GiB
La signora in giallo VOB (da dvd) ha un Overall bit rate : 5 452 kb/s e per 45 min 48 s occupa 1.74 GiB

Fatemi capire dove sta l'incongruenza. A me i conti tornano perfettamente, e non vedo file più piccoli a bitrate più alto o cose simili. Vedo file con durate MOLTO diverse e con bitrate diversi ma facendo i conti sono tutti perfettamente in linea.

Ovviamente, il file con bitrate più alto (circa 9 mbps)e con la durata maggiore è quello che occupa più spazio.
Discorso qualità: quello è difficile da definire. Posto che a parità di bitrate un h265 è meglio di un h264 che è meglio di un mpeg2, anche altre modalità di compressione, filtri, contenuto ecc possono dare risultati più o meno buoni.
da Doomkile
#1322987
ho capito, ti ringrazio, a questo punto credo di tenere entrambi, altrimenti cancellavo i dvd, devo dire però che i file da 1080p hanno più visibilità, nel senso nitidezza, colori, ecc mentre i dvd sono più pachi e sgranati
da willyfan
#1322988
Doomkile ha scritto:ho capito, ti ringrazio, a questo punto credo di tenere entrambi, altrimenti cancellavo i dvd, devo dire però che i file da 1080p hanno più visibilità, nel senso nitidezza, colori, ecc mentre i dvd sono più pachi e sgranati
Ovvio... Il DVD ha una risoluzione inferiore, che non ha nulla a che vedere con il bitrate.

Inviato dal mio M2007J20CG utilizzando Tapatalk

Certo che è un bel mistero, questo. Com'&eg[…]

Ma sei un Mito! :scusa: Ho abbassato il Bitrate […]

Che ne pensate di un oled panasonic 48 pollici da[…]

Ok, grazie infinite :wink: