Benvenuto su VideoMakers.net
Iscriviti per condividere la tua passione sul principale sito web italiano dedicato al VideoMaking!

Gli eventuali inserti pubblicitari all'interno delle discussioni sono visibili solo se non hai eseguito l'accesso al forum; ricordati di eseguire l'accesso o, se non sei ancora registrato, fallo QUI

Clicca qui per leggere le regole del forum
La sezione ufficiale dedicata a Pinnacle Studio e ad Avid Studio

Moderatore: Moderatori

#1325006
etr1000 ha scritto: mer, 12 gen 2022 - 14:48 cioè non va
non avendo pinnacle non saprei più cosa suggerire. L'unica strada ma un po' complicata potrebbe essere un rewrap in altro contenitore usando ffmpeg, ma non si può garantire. Certo che se i vari player lo leggono è strano. Dovresti provare a caricare una brevissima clip da provare a rewrappare.
#1325009
etr1000 ha scritto: mer, 12 gen 2022 - 14:48 cioè non va
intanto, fai la seguente prova. Scarica MEDIAINFO, poi con tanto destro del mouse leggi le info sul file, ricorda di settare la visualizzazione (view) in text mode. Riporta qui (con i tag di CODE se possibile) il risultato.
Questa prova serve per capire esattamente cosa c'è dentro al file. Essendo il TS un container (transport stream) potrebbe contenere dei file mpeg2 come pure un h264, un audio mpeg1 o aac. In base a quello che ci sta dentro, vediamo come fare.
#1325139
General
ID : 5200 (0x1450)
Complete name : E:\JD\Olimpiadi Invernali - Pechino 2022 - Cerimonia di Apertura\Olimpiadi
Invernali - Pechino 2022 - Cerimonia di Apertura in Ful HD.ts
Format : MPEG-TS
File size : 8.82 GiB
Duration : 2 h 18 min
Overall bit rate mode : Variable
Overall bit rate : 9 114 kb/s
Video
ID : 502 (0x1F6)
Menu ID : 3402 (0xD4A)
Format : AVC
Format/Info : Advanced Video Codec
Format profile : High@L4
Format settings : CABAC / 3 Ref Frames
Format settings, CABAC : Yes
Format settings, Reference : 3 frames
Format settings, GOP : M=4, N=16
Codec ID : 27
Duration : 2 h 18 min
Bit rate : 7 823 kb/s
Width : 1 920 pixels
Height : 1 080 pixels
Display aspect ratio : 16:9
Frame rate : 25.000 FPS
Color space : YUV
Chroma subsampling : 4:2:0
Bit depth : 8 bits
Scan type : MBAFF
Scan type, store method : Interleaved fields
Scan order : Top Field First
Bits/(Pixel*Frame) : 0.151
Stream size : 7.57 GiB (86%)
Encryption : Encrypted
Audio #1
ID : 602 (0x25A)
Menu ID : 3402 (0xD4A)
Format : MPEG Audio
Format version : Version 1
Format profile : Layer 2
Codec ID : 3
Duration : 2 h 18 min
Bit rate mode : Constant
Bit rate : 192 kb/s
Channel(s) : 2 channels
Sampling rate : 48.0 kHz
Frame rate : 41.667 FPS (1152 SPF)
Compression mode : Lossy
Delay relative to video : -926 ms
Stream size : 190 MiB (2%)
Language : Italian
Encryption : Encrypted
Audio #2
ID : 612 (0x264)
Menu ID : 3402 (0xD4A)
Format : AC-3
file:///C/...Desktop/Olimpiadi%20Invernali%20-%20Pechino%202022%20-%20Cerimonia%20di%20Apertura%20in%20Ful%20HD.ts.txt[09/02/2022 12:12:12]
Format/Info : Audio Coding 3
Commercial name : Dolby Digital
Codec ID : 6
Duration : 2 h 18 min
Bit rate mode : Constant
Bit rate : 448 kb/s
Channel(s) : 2 channels
Channel layout : L R
Sampling rate : 48.0 kHz
Frame rate : 31.250 FPS (1536 SPF)
Compression mode : Lossy
Delay relative to video : -935 ms
Stream size : 444 MiB (5%)
Language : oth
Service kind : Complete Main
Encryption : Encrypted
Audio #3
ID : 622 (0x26E)
Menu ID : 3402 (0xD4A)
Format : MPEG Audio
Format version : Version 1
Format profile : Layer 2
Codec ID : 3
Duration : 2 h 18 min
Bit rate mode : Constant
Bit rate : 192 kb/s
Channel(s) : 2 channels
Sampling rate : 48.0 kHz
Frame rate : 41.667 FPS (1152 SPF)
Compression mode : Lossy
Delay relative to video : -926 ms
Stream size : 190 MiB (2%)
Language : English
Encryption : Encrypted
Text #1
ID : 568 (0x238)-777
Menu ID : 3402 (0xD4A)
Format : Teletext Subtitle
Language : Italian
Text #2
ID : 568 (0x238)-778
Menu ID : 3402 (0xD4A)
Format : Teletext Subtitle
Language : English
Other
ID : 568 (0x238)-100
Menu ID : 3402 (0xD4A)
Format : Teletext
Language : Italian
Menu
ID : 1102 (0x44E)
Menu ID : 3402 (0xD4A)
Duration : 2 h 18 min
List : 502 (0x1F6) (AVC) / 602 (0x25A) (MPEG Audio, Italian) / 612 (0x264) (AC-3, oth) /
622 (0x26E) (MPEG Audio, English) / 568 (0x238)-100 (Teletext, it) / 568 (0x238)-777 (Teletext Subtitle,
it) / 568 (0x238)-778 (Teletext Subtitle, en) / 2011 (0x7DB) () / 2012 (0x7DC) () / 3011 (0xBC3) () /
file:///C/...Desktop/Olimpiadi%20Invernali%20-%20Pechino%202022%20-%20Cerimonia%20di%20Apertura%20in%20Ful%20HD.ts.txt[09/02/2022 12:12:12]
3012 (0xBC4) () / 3101 (0xC1D) ()
Language : / Italian / oth / English / Italian / Italian / English
#1325141
La chiave di volta del problema sta nella scritta "encryped"...

Inviato dal mio M2007J20CG utilizzando Tapatalk

da CCD
#1325143
:lol: :P Cioè, è li che si "ingrippa"


ciao William! :stretta:

Ciao a tutti, per poter liberare memoria dal SO (M[…]

ciao! ti allego le immagini di come fare Ps. ovvia[…]

Le prime 15 foto scattate dalla promettente fotogr[…]

spostare clip timeline mouse

Ciao, non capisco cosa sbaglio. Ho provato a cerc[…]