VideoMakers.net

Il maggior portale indipendente italiano sul mondo dell'editing audio/video
Oggi è gio, 23 nov 2017 - 02:11

Tutti gli orari sono UTC + 1 ora [ ora legale ]


Regole del forum


Clicca per leggere le regole del forum.

Gli eventuali inserti pubblicitari all'interno della discussione sono visibili solo se non hai eseguito l'accesso al forum; ricordati di eseguire l'accesso o, se non sei ancora registrato, fallo QUI



Apri un nuovo argomento Rispondi all’argomento  [ 1 messaggio ] 
Autore Messaggio
MessaggioInviato: mar, 14 nov 2017 - 16:16 
Non connesso
Newbie

Iscritto il: mar, 14 nov 2017 - 15:58
Messaggi: 1
Buongiorno a tutti, devo montare un video di un live show con 4 cam tutte in hd ma con codec differenti ( le specifiche sono a fine post ).
La domanda è semplice: lascio i file video sorgente uguali ed edito direttamente con con Adobe Premiere Pro CC 2018 oppure li converto tutti in cineform o in dnxhd e poi procedo con editing?

A seguire le specifiche dei file video.

CAMERA STRETTA:

General
Complete name : F:\VIDEO MANERBA 2016\BPAV camera stretta\CLPR\file unico\064_5075_02.MP4
Format : MPEG-4
Commercial name : XDCAM EX 35
Format profile : Base Media / Version 2
Codec ID : mp42
File size : 3.58 GiB
Duration : 13mn 28s
Overall bit rate mode : Variable
Overall bit rate : 38.1 Mbps
Encoded date : UTC 2016-08-03 20:51:13
Tagged date : UTC 2016-09-15 00:31:08

Video
ID : 1
Format : MPEG Video
Commercial name : XDCAM EX 35
Format version : Version 2
Format profile : Main@High
Format settings, BVOP : Yes
Format settings, Matrix : Custom
Format settings, GOP : M=3, N=12
Codec ID : 61
Duration : 13mn 28s
Bit rate mode : Variable
Bit rate : 35.0 Mbps
Width : 1 920 pixels
Height : 1 080 pixels
Display aspect ratio : 16:9
Frame rate mode : Constant
Frame rate : 25.000 fps
Standard : Component
Color space : YUV
Chroma subsampling : 4:2:0
Bit depth : 8 bits
Scan type : Interlaced
Scan order : Top Field First
Compression mode : Lossy
Bits/(Pixel*Frame) : 0.675
Stream size : 3.29 GiB (92%)
Language : English
Encoded date : UTC 2016-08-03 20:51:13
Tagged date : UTC 2016-08-03 20:51:13
Color primaries : BT.709
Transfer characteristics : BT.709
Matrix coefficients : BT.709

Audio #1
ID : 2
Format : PCM
Format settings, Endianness : Big
Format settings, Sign : Signed
Codec ID : twos
Duration : 13mn 28s
Bit rate mode : Constant
Bit rate : 768 Kbps
Channel(s) : 1 channel
Sampling rate : 48.0 KHz
Bit depth : 16 bits
Stream size : 74.0 MiB (2%)
Language : English
Encoded date : UTC 2016-08-03 20:51:13
Tagged date : UTC 2016-08-03 20:51:13


CAMERA LARGA:

General
ID : 255 (0xFF)
Complete name : F:\VIDEO MANERBA 2016\HVR camera larga\00_0006_0000-00-00_000001.M2T
Format : MPEG-TS
Commercial name : HDV 1080i
File size : 3.97 GiB
Duration : 21mn 44s
Start time : UTC 165-25-45 45:85:85
End time : UTC 165-25-45 45:85:85
Overall bit rate : 26.1 Mbps
Maximum Overall bit rate : 33.0 Mbps
Encoded date : UTC 165-25-45 45:85:85

Video
ID : 2064 (0x810)
Menu ID : 100 (0x64)
Format : MPEG Video
Commercial name : HDV 1080i
Format version : Version 2
Format profile : Main@High 1440
Format settings, BVOP : Yes
Format settings, Matrix : Custom
Format settings, GOP : M=3, N=12
Codec ID : 2
Duration : 21mn 44s
Bit rate : 24.4 Mbps
Maximum bit rate : 25.0 Mbps
Width : 1 440 pixels
Height : 1 080 pixels
Display aspect ratio : 16:9
Frame rate : 25.000 fps
Standard : Component
Color space : YUV
Chroma subsampling : 4:2:0
Bit depth : 8 bits
Scan type : Interlaced
Scan order : Top Field First
Compression mode : Lossy
Bits/(Pixel*Frame) : 0.629
Stream size : 3.71 GiB (94%)
Color primaries : BT.709
Transfer characteristics : BT.709
Matrix coefficients : BT.709

Audio
ID : 2068 (0x814)
Menu ID : 100 (0x64)
Format : MPEG Audio
Format version : Version 1
Format profile : Layer 2
Codec ID : 3
Duration : 21mn 44s
Bit rate mode : Constant

GO PRO BATTERIA:

Complete name : F:\VIDEO MANERBA 2016\GO PRO batterista\GOPR2555.MP4
Format : MPEG-4
Format profile : Base Media / Version 1
Codec ID : mp41
File size : 20.8 MiB
Duration : 3s 820ms
Overall bit rate mode : Variable
Overall bit rate : 45.7 Mbps
Encoded date : UTC 2014-02-12 02:13:11
Tagged date : UTC 2016-09-06 01:37:09
AMBA : 

Video
ID : 1
Format : AVC
Format/Info : Advanced Video Codec
Format profile : High@L4.2
Format settings, CABAC : Yes
Format settings, ReFrames : 1 frame
Format settings, GOP : M=1, N=25
Codec ID : avc1
Codec ID/Info : Advanced Video Coding
Duration : 3s 820ms
Bit rate mode : Variable
Bit rate : 45.5 Mbps
Maximum bit rate : 45.0 Mbps
Width : 1 920 pixels
Height : 1 080 pixels
Display aspect ratio : 16:9
Frame rate mode : Constant
Frame rate : 50.000 fps
Color space : YUV
Chroma subsampling : 4:2:0
Bit depth : 8 bits
Scan type : Progressive
Bits/(Pixel*Frame) : 0.439
Stream size : 20.7 MiB (100%)
Title : GoPro AVC
Language : English
Encoded date : UTC 2014-02-12 02:13:11
Tagged date : UTC 2014-02-12 02:13:11
Color primaries : BT.709-5, BT.1361, IEC 61966-2-4, SMPTE RP177
Transfer characteristics : BT.709-5, BT.1361
Matrix coefficients : BT.709-5, BT.1361, IEC 61966-2-4 709, SMPTE RP177

Audio
ID : 2
Format : AAC
Format/Info : Advanced Audio Codec
Format profile : LC
Codec ID : 40
Duration : 3s 776ms
Bit rate mode : Constant
Bit rate : 128 Kbps
Channel(s) : 2 channels
Channel positions : Front: L R
Sampling rate : 48.0 KHz
Compression mode : Lossy

STEADYCAM:
General
ID : 1 (0x1)
Complete name : F:\VIDEO MANERBA 2016\STEADYCAM\00000.MTS
Format : BDAV
Format/Info : Blu-ray Video
File size : 94.8 MiB
Duration : 32s 93ms
Overall bit rate mode : Variable
Overall bit rate : 24.8 Mbps
Maximum Overall bit rate : 28.0 Mbps

Video
ID : 4113 (0x1011)
Menu ID : 1 (0x1)
Format : AVC
Format/Info : Advanced Video Codec
Format profile : High@L4.2
Format settings, CABAC : Yes
Format settings, ReFrames : 4 frames
Format settings, GOP : M=3, N=24
Codec ID : 27
Duration : 31s 640ms
Bit rate mode : Variable
Bit rate : 23.4 Mbps
Maximum bit rate : 26.0 Mbps
Width : 1 920 pixels
Height : 1 080 pixels
Display aspect ratio : 16:9
Frame rate : 50.000 fps
Color space : YUV
Chroma subsampling : 4:2:0
Bit depth : 8 bits
Scan type : Progressive
Bits/(Pixel*Frame) : 0.226
Stream size : 88.3 MiB (93%)

Audio
ID : 4352 (0x1100)
Menu ID : 1 (0x1)
Format : AC-3
Format/Info : Audio Coding 3
Mode extension : CM (complete main)
Codec ID : 129
Duration : 31s 712ms
Bit rate mode : Constant
Bit rate : 384 Kbps
Channel(s) : 6 channels
Channel positions : Front: L C R, Side: L R, LFE
Sampling rate : 48.0 KHz
Bit depth : 16 bits
Compression mode : Lossy
Delay relative to video : -40ms
Stream size : 1.45 MiB (2%)

Text
ID : 4608 (0x1200)
Menu ID : 1 (0x1)
Format : PGS

Grazie a tutti.


Top
 Profilo  
Rispondi citando  
Visualizza ultimi messaggi:  Ordina per  
Apri un nuovo argomento Rispondi all’argomento  [ 1 messaggio ] 

Tutti gli orari sono UTC + 1 ora [ ora legale ]


Chi c’è in linea

Visitano il forum: Nessuno e 5 ospiti


Non puoi aprire nuovi argomenti
Non puoi rispondere negli argomenti
Non puoi modificare i tuoi messaggi
Non puoi cancellare i tuoi messaggi
Non puoi inviare allegati

Cerca per:
Vai a:  
Powered by phpBB® Forum Software © phpBB Group
Traduzione Italiana phpBBItalia.net basata su phpBB.it 2010

VideomakersOfTheYear