Benvenuto su VideoMakers.net
Iscriviti per condividere la tua passione sul principale sito web italiano dedicato al VideoMaking!

Gli eventuali inserti pubblicitari all'interno delle discussioni sono visibili solo se non hai eseguito l'accesso al forum; ricordati di eseguire l'accesso o, se non sei ancora registrato, fallo QUI

Clicca qui per leggere le regole del forum
La sezione ufficiale dedicata ad Adobe Premiere Pro e Premiere Elements.

Moderatore: Moderatori

#1318396
Buongiorno a tutti.
Chiedo scusa in anticipo se la mia domanda è stupida o "vecchia", ma non riesco a trovare una soluzione.
Caso semplicissimo: ho un filmato da web (la registrazione di un webinar) di circa 40 min. Il file pesa circa 30 Mb ed ha una buona definizione.
L'ho importato, ho tagliato i 10 min iniziali e zoomato in modo che si vedesse solo la "lavagna" al centro e non i bordi. Fine.
Quando provo ad esportarlo però le dimensioni sono sempre enormi (mai meno di 300 Mb). Ho provato a cambiare in tutti i modi le impostazioni, scendendo anche al minimo di fps. Niente: scade la qualita e basta, ottenendo un output pesantissimo che però si vede peggio dell'input che è leggerissimo.
Dove sbaglio?
Grazie in anticipo a chiunque vorrà aiutarmi.
#1318423
Qualche dettaglio in più sul mio "problema".
Ho un filmato esportato dal software che usiamo per i webinar, che dura circa 40 minuti.
Le informazioni sul file (che leggo da VLC) sono:

VIDEO
Codifica: H264 - MPEG-4 AVC (part 10) (avc1)
Risoluzione: 1920x1080
FPS: 25

AUDIO
Codifica: MPEG AAC Audio (mp4a)
Canali: Stereo
Campionamento: 32000 Hz
Bit per campione: 32

Il file pesa 34,6 MB e si vede piuttosto bene.

Lo importo in Premiere, taglio i 5 minuti iniziali di "convenevoli" e lo esporto.
Quello che non capisco è perchè, anche abbassando il bitrate al minimo, la dimensione del file non scende mai sotto i 150-200 MB.
Ma il risultato ha una qualità pessima (sfocato, ecc...). Per avere un risultato decente la dimensione del file si avvicina agli 800 MB.
La differenza con il file originale è talmente grande che penso che davvero sto sbagliando qualcosa di clamoroso.

Spero che così si più chiara la situazione.
Grazie ancora a tutti.
#1318427
Ciao, che versione di Premiere stai utilizzando?
Quello che ti consiglio è di procedere così: importa la clip in Premiere Pro, successivamente dal pannello Project fai clic destro sulla clip > new sequence from clip. A questo punto taglia la parte iniziale del video direttamente dalla timeline ed ingrandisci il video. Qui ti faccio una domanda: il video di quando lo ingrandisci? Di partenza è al 100%. Tu a quanto lo porti?
Per esportare utilizza H265 che ha una maggiore compressione, così avrai un file più piccolo. Però devi valutare se puoi leggere questo formato. Dove visualizzerai il video? Lo visualizzerai in un lettore dvd/blu ray oppure attraverso il computer?
Scegli un bitrate che non ti crea un file abbastanza ingombrante ed esporta.
da Rider
#1318431
Ciao Davide,
[MOD CUT]

In merito al tuo problema, forse commetti un errore grossolano ma forse no.
Devi sapere che sebbene possa apparire un operazione banale (accorcio, zoomo, esporto) in realtà degrada molto la qualità proprio perchè il video originale è già leggerissimo (30MB per 40m sono davvero nulla e mi fa pensare che tu ti stia sbagliando)
Possiamo perciò solo aiutarti a non commettere errori che peggiorino la conversione.
Per comprendere meglio la situazione sarebbe utile che postassi i risultati che produce il tool mediainfo (nella sua visione ad albero) https://mediainfo.it.uptodown.com/windows
E' un software gratuito scaricabile da rete, di semplicissimo utilizzo. Posta i risultati sia per l'originale che per uno dei tuoi tentativi
#1318437
Grazie a tutti e scusate ancora se ho fatto un po' di casino con il regolamento del forum, la presentazione, ecc...

Utilizzo Premiere Pro CC 2017.

Per evitare che le operazioni che eseguo, anche se poche, influiscano sul risultato, ho fatto questo esperimento: ho preso il file, l'ho importato in Premiere, trascinato nella timeline ed esportato. Nient'altro.
Se lascio i parametri di default me lo esporta alla stessa risoluzione dell'originale (1920x1080 - 25fps) con un CBR di 10 Mbps. La dimensione stimata dell'output è di 2953 MB. Se abbasso il bitrate al minimo (0,19) la dimensione si abbassa a "soli" 146 MB. Però si vede veramente da schifo mentre l'originale, con i suoi (pochissimi) 36 MB si vede da dio (ho testato con VLC e con Windows media player).

Qui di seguito le due analisi di mediainfo per il filmato originale e per l'export da Premiere (ho esportato solo 2 minuti per non stare ad aspettare troppo):

---- FILE ORIGINALE ----

General
Complete name :
Format : MPEG-4
Format profile : Base Media
Codec ID : isom (isom/iso2/avc1/mp41)
File size : 34.7 MiB
Duration : 40 min 0 s
Overall bit rate : 121 kb/s
Writing application : Lavf58.20.100

Video
ID : 1
Format : AVC
Format/Info : Advanced Video Codec
Format profile : High@L4
Format settings : CABAC / 4 Ref Frames
Format settings, CABAC : Yes
Format settings, Reference frames : 4 frames
Codec ID : avc1
Codec ID/Info : Advanced Video Coding
Duration : 40 min 0 s
Bit rate : 45.2 kb/s
Width : 1 920 pixels
Height : 1 080 pixels
Display aspect ratio : 16:9
Frame rate mode : Constant
Frame rate : 25.000 FPS
Color space : YUV
Chroma subsampling : 4:2:0
Bit depth : 8 bits
Scan type : Progressive
Bits/(Pixel*Frame) : 0.001
Stream size : 12.9 MiB (37%)
Writing library : x264 core 157 r2935 545de2f
Encoding settings : cabac=1 / ref=1 / deblock=1:0:0 / analyse=0x3:0x113 / me=hex / subme=2 / psy=1 / psy_rd=1.00:0.00 / mixed_ref=0 / me_range=16 / chroma_me=1 / trellis=0 / 8x8dct=1 / cqm=0 / deadzone=21,11 / fast_pskip=1 / chroma_qp_offset=0 / threads=12 / lookahead_threads=4 / sliced_threads=0 / nr=0 / decimate=1 / interlaced=0 / bluray_compat=0 / constrained_intra=0 / bframes=3 / b_pyramid=2 / b_adapt=1 / b_bias=0 / direct=1 / weightb=1 / open_gop=0 / weightp=1 / keyint=750 / keyint_min=25 / scenecut=40 / intra_refresh=0 / rc_lookahead=10 / rc=crf / mbtree=1 / crf=23.0 / qcomp=0.60 / qpmin=0 / qpmax=69 / qpstep=4 / vbv_maxrate=750 / vbv_bufsize=1500 / crf_max=0.0 / nal_hrd=none / filler=0 / ip_ratio=1.40 / aq=1:1.00
Codec configuration box : avcC

Audio
ID : 2
Format : AAC LC
Format/Info : Advanced Audio Codec Low Complexity
Codec ID : mp4a-40-2
Duration : 40 min 0 s
Bit rate mode : Constant
Bit rate : 69.7 kb/s
Channel(s) : 1 channel
Channel layout : C
Sampling rate : 32.0 kHz
Frame rate : 31.250 FPS (1024 SPF)
Compression mode : Lossy
Stream size : 19.9 MiB (58%)
Default : Yes
Alternate group : 1

---- EXPORT PREMIERE ----

General
Complete name :
Format : MPEG-4
Format profile : Base Media / Version 2
Codec ID : mp42 (mp42/mp41)
File size : 4.29 MiB
Duration : 1 min 9 s
Overall bit rate : 514 kb/s
Encoded date : UTC 2020-08-03 11:36:30
Tagged date : UTC 2020-08-03 11:36:30
TIM : 00:38:50:17
TSC : 25
TSZ : 1

Video
ID : 1
Format : AVC
Format/Info : Advanced Video Codec
Format profile : Main@L4.1
Format settings : CABAC / 3 Ref Frames
Format settings, CABAC : Yes
Format settings, Reference frames : 3 frames
Codec ID : avc1
Codec ID/Info : Advanced Video Coding
Duration : 1 min 9 s
Bit rate : 192 kb/s
Width : 1 920 pixels
Height : 1 080 pixels
Display aspect ratio : 16:9
Frame rate mode : Constant
Frame rate : 25.000 FPS
Standard : PAL
Color space : YUV
Chroma subsampling : 4:2:0
Bit depth : 8 bits
Scan type : Progressive
Bits/(Pixel*Frame) : 0.004
Stream size : 1.60 MiB (37%)
Language : English
Encoded date : UTC 2020-08-03 11:36:30
Tagged date : UTC 2020-08-03 11:36:30
Color range : Limited
Color primaries : BT.709
Transfer characteristics : BT.709
Matrix coefficients : BT.709
Codec configuration box : avcC

Audio
ID : 2
Format : AAC LC
Format/Info : Advanced Audio Codec Low Complexity
Codec ID : mp4a-40-2
Duration : 1 min 9 s
Source duration : 1 min 9 s
Bit rate mode : Constant
Bit rate : 317 kb/s
Channel(s) : 2 channels
Channel layout : L R
Sampling rate : 48.0 kHz
Frame rate : 46.875 FPS (1024 SPF)
Compression mode : Lossy
Stream size : 2.65 MiB (62%)
Source stream size : 2.65 MiB (62%)
Language : English
Encoded date : UTC 2020-08-03 11:36:30
Tagged date : UTC 2020-08-03 11:36:30
da Rider
#1318444
Davide,
le informazioni che hai postato e la tua prova sono state molto utili. Si comprende che non ci sono tuoi errori e siamo ai limiti del possibile.
Il video originale è compresso molto ma molto bene, sicuramente merito anche di un immagine molto statica.
Per produrre un video di pari qualità e minor peso sarebbe indispensabile partire dal materiale girato, che contiene molte più informazioni grezze da comprimere.
Dubito (ma puoi sempre provare) che anche l'suo dell'H265 possa arrivare al risultato.

Invece per non perdere nessuna qualità, tagliare quei 10m, senza zoomare sulla lavagna, e trovarti con un video meno ingombrante (ma scusami, che vuoi che sia oggi risparmiare un pugno di MB?!?), dovresti usare un programma come virtualdub o avidemux, i quali non ricodificano il video ma lo tagliano solamente, lasciandone intatte le caratteristiche di qualità e leggerezza. Usane la funzione "Copy as"
#1318467
Rider ha scritto: mar, 04 ago 2020 - 09:39 ...dovresti usare un programma come virtualdub o avidemux, i quali non ricodificano il video ma lo tagliano solamente, lasciandone intatte le caratteristiche di qualità e leggerezza. Usane la funzione "Copy as"
Esattamente, o se hai voglia di sbizzarrirti è possibile usare ffmpeg, di cui si parla diffusamente nel forum. Questo ti permette di tagliare il file almeno a livello di iframe (non puoi tagliare dove ti pare) ma non viene effettuata alcuna ricodifica.
#1318468
Altra cosa, il video originale è stato codificato con x264 in una modalità a qualità costante. Volendo, ma comunque si perde in qualità, potresti esportare da premiere un master provvisorio a qualità alta, magari in prores, e poi codificare quest'ultimo con x264 (che è la libreria usata anche da ffmpeg, tanto per cambiare) usando i medesimi parametri, che trovi nel tuo media info dopo "encoding settings". E' un po' da smanettoni, ma si può fare.

La fusione può aiutare o peggiorare, dipend[…]

No niente da fare. La versione desktop non prende […]

Roku is a streaming device, which is a reasonable […]

Altra cosa, il video originale è stato codi[…]